#TITLE:Astrogation;
#SUBTITLE:Ongaku Senshi MUSIC FIGHTER February;
#ARTIST:Nana Mizuki;
#TITLETRANSLIT:;
#SUBTITLETRANSLIT:;
#ARTISTTRANSLIT:;
#CREDIT:TrungDaiBang;
#BANNER:banner.jpg;
#BACKGROUND:bg.jpg;
#LYRICSPATH:;
#CDTITLE:trung.png;
#MUSIC:01. Astrogation (Ongaku Senshi MUSIC FIGHTER February OP Theme).mp3;
#OFFSET:-0.710;
#SAMPLESTART:71.404;
#SAMPLELENGTH:25.000;
#SELECTABLE:YES;
#BPMS:0.000=143.010;
#STOPS:;
#BGCHANGES:;
// cache tags:
#FIRSTBEAT:1.000;
#LASTBEAT:314.000;
#SONGFILENAME:Songs/nhac/Astrogation/Astrogation.sm;
#HASMUSIC:1;
#HASBANNER:1;
#MUSICLENGTH:134.313;
// end cache tags

//---------------dance-single - ----------------
#NOTES:
     dance-single:
     :
     Hard:
     12:
     1.000,1.000,1.000,0.380,1.000,1076.000,295.000,51.000,0.000,0.000:
0000
0000
1000
0100
0010
0001
0010
0100
,
1000
0100
0010
0100
0000
0010
0001
0010
0100
0010
0001
0010
0000
0100
0011
0000
,
0011
0000
0001
0000
0001
0000
0000
0100
0011
1000
0100
1000
0100
1000
0100
1000
,
0100
0010
0001
0010
0001
0010
0001
0010
0100
1000
0100
0010
0100
1000
0200
0320
,
0032
0000
0000
0000
0023
0000
0000
0000
0230
0000
0000
0000
2300
0000
0000
3000
0011
0000
0000
0000
0000
0000
0000
0000
0010
0000
0000
0000
0100
0000
0000
0000
0010
0000
0000
0000
0001
0000
0000
0000
0010
0000
0000
0000
0100
0000
0000
0000
1000
0000
0000
0000
0100
0000
0000
0000
1000
0000
0000
0000
0100
0000
0000
0000
,
1000
0100
0010
0100
0010
0001
0010
0001
0010
0001
0010
0001
0010
0100
1000
0100
,
0010
0100
1000
0100
1001
0100
0010
0100
0010
1000
0100
1000
0110
0001
0010
0100
,
0010
0000
1000
0000
0100
0000
0010
0000
1100
0000
0011
0000
0000
0000
0100
0000
1010
0000
0001
0010
0001
0000
1000
0100
1001
0000
1001
0000
1001
0000
1001
0000
,
1001
0110
0110
0110
1001
0000
0001
0100
1010
0001
0010
1000
0110
0000
0100
0001
,
1010
0100
0001
0100
1010
0000
1000
0100
0011
0100
1000
0100
0011
0000
1000
0100
,
1010
0001
0010
0100
1010
0000
0001
0100
1010
0100
0010
0001
1010
0000
1000
0100
,
1010
0001
0010
0100
0011
1000
0010
1000
0010
1000
0010
1000
0101
1010
0101
1010
,
0101
1010
0101
1010
0101
0000
1000
0100
1010
0100
0010
0100
0010
0000
0100
0010
,
0101
1000
0100
0010
0100
0000
0010
0001
1100
0010
0001
0100
0010
0000
0100
0010
,
1001
0100
0010
0001
0010
0000
0010
0100
1001
0010
0100
1000
0101
0101
0101
0101
,
1010
0000
0000
0000
0001
0010
0001
0010
1100
0000
1100
0000
1100
0000
1100
0000
0010
0000
0101
0000
0000
0000
0101
0000
0000
0000
1010
0000
1010
0000
0000
0000
,
1000
0010
0100
0010
0100
0010
0100
0010
0000
0000
0000
0000
1100
0000
0000
0000
0001
0000
1100
0000
0000
0000
0010
0000
1100
0000
0000
0000
0010
0000
1100
0000
,
0000
0010
1100
0000
0000
0000
0110
0000
1000
0110
0000
0001
0110
0000
0001
0110
,
0000
0001
0110
0000
0000
0000
0110
0000
0001
1100
0000
0010
1100
0000
0010
1100
,
0000
0010
1100
0000
0000
0000
0110
0000
0100
0011
0000
1000
0011
0000
1000
0011
,
0000
0000
1000
0011
0000
0000
0011
0000
0001
1010
0000
0100
1010
0000
0100
1010
,
0000
0100
1010
0000
0000
0000
1010
0000
0001
0110
0000
1000
0110
0000
1000
0110
,
0000
1000
0110
0000
0000
0000
1010
0000
0010
0101
0000
1000
0101
0000
1000
0101
,
0000
0000
1000
0000
0101
0000
0000
0000
0100
0010
0100
0000
1001
0000
0000
0000
1001
0000
0100
0000
0010
0000
0001
0000
1010
0000
1010
0000
1010
0000
1010
0000
,
0101
0101
0101
0101
0101
1000
0100
0010
0100
0010
0001
0010
0100
1000
0010
0100
,
1000
0000
0100
0000
0010
0000
0001
0000
0010
0000
0100
0000
0010
0000
0001
0000
0010
0000
0100
0000
0010
0000
0100
0000
2010
0000
0001
3000
0210
0000
0001
0300
,
2010
0000
0100
3000
0012
0000
0100
0000
1000
0000
0100
0000
0010
0000
0100
0000
1000
0000
0100
0000
0010
0000
0100
0000
2003
0000
0100
0000
0010
0000
0001
0000
,
0010
3100
0010
0001
0210
0001
0310
0100
1000
0100
0010
0100
1000
0100
0010
0002
,
0023
0130
2000
3200
0320
0030
1000
0100
0010
0001
0010
0100
0010
0001
0100
1000
,
0100
0010
0001
0010
0100
0010
0001
1000
0100
0010
1000
0100
0010
0001
0020
0100
,
0032
0010
2003
0100
0010
0001
0010
0100
0010
0001
0100
3010
0201
0010
0001
0010
,
0001
0010
0301
1000
0120
1000
0100
1000
0100
1030
0100
0010
1001
0110
1001
0110
,
1001
0000
0000
0000
0000
0000
1001
0110
1001
0000
0000
0000
1000
0000
0000
0000
0110
0000
0000
0000
0001
0000
0000
0000
0110
0000
0000
0000
1000
0000
0001
0000
,
0110
0000
0100
0000
0201
0000
0010
0300
1001
0000
0010
0000
0102
0000
1000
0003
,
0101
0010
0100
0000
0011
0000
1000
0000
0101
0000
0010
0000
0110
0000
0001
0000
,
0101
0000
0010
0000
0101
0010
1000
0000
0101
0010
1000
0000
0101
0010
1000
0000
,
0110
0000
0100
0000
2002
3003
0010
0000
0110
0000
0100
0000
0110
0000
0010
0000
,
0011
0000
0020
0230
0320
0000
1030
0000
0110
0000
0100
0000
1100
0000
1000
0000
,
1100
0010
0001
0000
0110
0000
0010
0000
0011
0000
0001
0000
0011
0000
0010
0000
,
0110
0000
0100
0000
1001
0010
1000
0000
1001
0010
1000
0000
1001
0010
1000
0000
,
0110
0000
1000
0000
0101
0000
0000
1010
0000
0000
0101
0000
1001
0000
0000
0110
,
0000
0000
1001
0000
0110
1000
0100
0010
0001
0010
0100
1000
0100
0010
0000
0100
,
1010
0000
1001
0100
0011
1000
0100
0010
0001
0010
0100
1000
0110
0001
0010
0100
,
1000
0100
1000
0100
1010
0100
0010
0001
0010
0100
0010
0001
1010
0100
0010
0100
,
1000
0100
0010
0100
1010
0001
0010
0100
1000
0100
0010
0001
0110
1000
0100
1000
,
0100
0010
0001
0010
1001
0100
0010
0100
1000
0100
0010
0100
1010
1010
1010
1010
,
1010
0100
1000
0100
1010
0100
0010
0001
0010
0100
1000
0100
1001
0010
0100
1000
,
0100
0010
0100
1000
0110
0001
0010
0100
0010
1000
0100
1000
0101
0010
0100
1000
,
0100
0010
0001
0010
1001
0100
1000
0100
1000
0100
0010
0001
0110
1000
0100
0010
,
0001
0010
0001
0010
0101
0010
0001
0010
0100
0010
0100
1000
0110
0010
0010
0010
,
0010
0010
0010
0010
0101
0000
0110
0000
1010
0100
0010
2002
3003
0000
2002
3003
,
0010
0100
1000
0100
0011
0100
1000
0010
0100
0001
0010
0100
0010
0100
0010
0100
,
0010
0100
1010
0101
1010
0100
0010
0001
0010
0100
0010
0100
1010
0100
0010
0001
,
0010
0100
1000
0100
2020
3030
0000
2020
3030
0000
2020
3030
2020
3030
0100
0001
,
0100
0001
0100
0001
1010
0100
0010
0001
0010
0100
0010
0001
1010
0100
0010
1000
,
0010
0001
0100
0001
1010
0100
0010
1000
0001
0010
1000
0001
1010
0100
0001
1000
,
0010
0100
0001
1000
0101
0010
1000
0100
0001
0100
1000
0001
0110
1000
0100
0001
,
0010
0100
1000
0001
1010
0100
1000
0010
0100
0001
0010
1000
0110
0001
0100
0010
,
1000
0100
0001
0100
1010
0001
0100
1000
0100
0001
0010
0100
1010
0001
0010
1000
,
0100
0001
0100
0010
1100
0001
0010
0001
1000
0010
0100
0001
0110
1000
0010
0001
,
0100
1000
0010
1000
0110
0001
0100
1000
0010
0001
0100
1000
0011
0100
1000
0100
,
0010
0001
0100
1000
0011
0100
1000
0100
0010
0001
0010
0001
0110
0001
0010
0001
,
0010
0100
1000
0100
0011
0100
0010
0100
1010
0100
0010
0001
1010
0100
0010
0100
,
1010
0001
0010
0100
1010
0100
0010
0001
1010
0100
1000
0100
0011
0100
1000
0100
,
0011
1000
0100
1000
0101
0010
0100
1000
0110
0001
0010
0100
1001
0100
0010
0100
,
1001
0010
0100
1000
0101
0010
0100
1000
0101
0010
0100
1000
0110
0001
0010
0100
,
0011
0100
1010
1010
1010
0100
0010
0001
1010
0100
1000
0100
0011
0100
1000
0100
,
0011
0100
1000
0100
0011
0100
0010
0001
1010
0100
1000
0010
0101
1000
0100
0010
,
1100
0010
0001
0100
1010
0100
0010
1001
0000
0000
1001
0000
1001
0000
1001
1001
,
0000
1001
1001
0110
2002
0000
0000
0000
3003
1001
1001
1001
1001
1001
1001
1001
,
2002
3003
0220
0330
2002
3003
0001
0100
1010
0001
0010
1000
0101
0000
0100
0001
,
1010
0100
0010
0100
1001
0000
1000
0100
1010
0100
0010
0100
0011
0000
0001
0010
,
1100
0010
0001
0010
1100
0000
0010
0001
1010
0100
0010
0001
1010
0000
1000
0100
,
1010
0001
0010
0100
0011
1000
0100
0010
1000
0100
0010
1001
1001
1001
1001
1001
,
1001
1001
1001
1001
1001
0000
0010
0100
1010
0100
0001
0100
1010
0000
0100
0010
,
0101
1000
0100
0010
0101
0000
0010
0001
1010
0001
0010
0100
1010
0000
0100
0010
,
1001
0100
0010
0001
1010
0000
0010
0100
1001
0010
0100
1000
0110
0000
0001
0100
,
1010
0100
0001
0010
0110
0110
0110
0110
0000
1001
0000
1001
0000
0110
0110
0000
,
0001
0010
0100
1000
0001
0010
0100
1000
0022
0000
0000
0000
0000
0000
0000
0000
0033
0000
0000
0000
0000
0000
0000
0000
0000
0000
0000
0000
0000
0000
0000
0000
;
